Трансформеры: Последний рыцарь / Transformers: The Last Knight (2017) BDRip [H264/720p]

Производство: США, Di Bonaventura Pictures, Hasbro Inc., Huahua Film & Media Culture, Ian Bryce Productions
Жанр: Фантастика, Боевик, Триллер, Приключения

Режиссер: Майкл Бэй
Продюсер: Майкл Бэй, Йен Брайс, Мэттью Кохан
Актеры: Марк Уолберг, Энтони Хопкинс, Лора Хэддок, Изабела Монер, Джош Дюамель, Джон Гудмен, Стэнли Туччи, Джон Туртурро, Жан Дюжарден, Кен Ватанабе, Гил Бирмингем, Сантьяго Кабрера, Джон Ди Маджио, Питер Каллен, Митч Пиледжи, Стивен Хоган

Описание:
Оптимус Прайм исчез. Люди ведут войну с Трансформерами. Ключ к нашему будущему погребен в тайнах прошлого, в скрытой истории Трансформеров на Земле… Миссия по спасению мира ложится на плечи разношерстной компании, состоящей из Кейда Йегера, Бамблби, английского лорда и профессора из Оксфорда. Пришла пора действовать! Жертвы станут героями. Герои станут злодеями. Выстоит только один мир: их или наш.

pic 5.3/1045,623
Возраст: 12+ (зрителям, достигшим 16 лет)
Рейтинг MPAA: PG-13 (детям до 13 лет просмотр нежелателен)
Дата мировой премьеры: 21 июня 2017
Дата российской премьеры: 22 июня 2017, «Централ Партнершип»

Релиз от: ExKinoRay
Продолжительность: 02:34:38
Качество видео: BDRip 720p pic
Перевод: Дублированный (iTunes)
Субтитры: Русские (форс, полные), украинские (форс, полные), английские (полные)

Видео: AVC/H.264, 1280x674, 6500 kbps, 23.976 fps
Аудио #1: AC-3, 6 ch, 384 Kbps, CBR - Русский
Аудио #2: AC-3, 6 ch, 640 Kbps, CBR - Английский

http://assets.nnm-club.ws/forum/image.php?link=http://s013.radikal.ru/i323/1709/44/1f648716a870.jpg

MediaInfo:

Общее
Уникальный идентификатор                 : 210717310874158156142246603100581208263 (0x9E86AD89A17CE72F9F9C32D6139F20C7)
Полное имя                               : D:\Фильмы\Transformers.The.Last.Knight.2017.BDRip.720p.mkv
Формат                                   : Matroska
Версия формата                           : Version 4 / Version 2
Размер файла                             : 8,13 Гбайт
Продолжительность                        : 2 ч. 34 м.
Общий поток                              : 7526 Кбит/сек
Название фильма                          : Transformers The Last Knight 2017 720p BluRay x264 DD5.1-HDChina
Дата кодирования                         : UTC 2017-09-14 09:33:44
Программа кодирования                    : mkvmerge v15.0.0 ('Duel with the Devil') 64-bit
Библиотека кодирования                   : libebml v1.3.5 + libmatroska v1.4.5

Видео
Идентификатор                            : 1
Формат                                   : AVC
Формат/Информация                        : Advanced Video Codec
Профиль формата                          : High@L4.1
Настройки формата                        : CABAC / 9 Ref Frames
Параметр CABAC формата                   : Да
Параметр RefFrames формата               : 9 кадров
Идентификатор кодека                     : V_MPEG4/ISO/AVC
Продолжительность                        : 2 ч. 34 м.
Битрейт                                  : 6500 Кбит/сек
Ширина                                   : 1280 пикселей
Высота                                   : 674 пикселя
Соотношение сторон                       : 1,899
Режим частоты кадров                     : Постоянный
Частота кадров                           : 23,976 (24000/1001) кадра/сек
Цветовое пространство                    : YUV
Субдискретизация насыщенности            : 4:2:0
Битовая глубина                          : 8 бит
Тип развёртки                            : Прогрессивная
Бит/(Пиксели*Кадры)                      : 0.314
Размер потока                            : 7,02 Гбайт (86%)
Заголовок                                : Medusa @ HDChina
Библиотека кодирования                   : x264 core 148 r2665kMod a01e339
Настройки программы                      : cabac=1 / ref=9 / deblock=1:-3:-3 / analyse=0x3:0x133 / me=umh / subme=11 / psy=1 / fade_compensate=0.00 / psy_rd=1.05:0.00 / mixed_ref=1 / me_range=32 / chroma_me=1 / trellis=2 / 8x8dct=1 / cqm=0 / deadzone=21,11 / fast_pskip=0 / chroma_qp_offset=-2 / threads=21 / lookahead_threads=3 / sliced_threads=0 / nr=0 / decimate=0 / interlaced=0 / bluray_compat=0 / constrained_intra=0 / fgo=0 / bframes=8 / b_pyramid=2 / b_adapt=2 / b_bias=0 / direct=3 / weightb=1 / open_gop=0 / weightp=2 / keyint=240 / keyint_min=24 / scenecut=40 / intra_refresh=0 / rc=2pass / mbtree=0 / bitrate=6500 / ratetol=1.0 / qcomp=0.70 / qpmin=0 / qpmax=69 / qpstep=4 / cplxblur=20.0 / qblur=0.5 / ip_ratio=1.20 / pb_ratio=1.20 / aq=3:0.85
Язык                                     : English
Default                                  : Да
Forced                                   : Нет

Аудио #1
Идентификатор                            : 2
Формат                                   : AC-3
Формат/Информация                        : Audio Coding 3
Параметр Endianness формата              : Big
Идентификатор кодека                     : A_AC3
Продолжительность                        : 2 ч. 34 м.
Вид битрейта                             : Постоянный
Битрейт                                  : 384 Кбит/сек
Каналы                                   : 6 каналов
Расположение каналов                     : Front: L C R, Side: L R, LFE
Частота                                  : 48,0 КГц
Частота кадров                           : 31,250 кадров/сек (1536 SPF)
Битовая глубина                          : 16 бит
Метод сжатия                             : С потерями
Размер потока                            : 425 Мбайт (5%)
Заголовок                                : iTunes
Язык                                     : Russian
ServiceKind/String                       : Complete Main
Default                                  : Да
Forced                                   : Нет

Аудио #2
Идентификатор                            : 3
Формат                                   : AC-3
Формат/Информация                        : Audio Coding 3
Параметр Endianness формата              : Big
Идентификатор кодека                     : A_AC3
Продолжительность                        : 2 ч. 34 м.
Вид битрейта                             : Постоянный
Битрейт                                  : 640 Кбит/сек
Каналы                                   : 6 каналов
Расположение каналов                     : Front: L C R, Side: L R, LFE
Частота                                  : 48,0 КГц
Частота кадров                           : 31,250 кадров/сек (1536 SPF)
Битовая глубина                          : 16 бит
Метод сжатия                             : С потерями
Размер потока                            : 708 Мбайт (9%)
Заголовок                                : Original
Язык                                     : English
ServiceKind/String                       : Complete Main
Default                                  : Нет
Forced                                   : Нет

Текст #1
Идентификатор                            : 4
Формат                                   : UTF-8
Идентификатор кодека                     : S_TEXT/UTF8
Идентификатор кодека/Информация          : UTF-8 Plain Text
Продолжительность                        : 2 ч. 33 м.
Битрейт                                  : 1 бит/сек
ElementCount                             : 34
Размер потока                            : 1,29 Кбайт (0%)
Заголовок                                : Forced
Язык                                     : Russian
Default                                  : Да
Forced                                   : Нет

Текст #2
Идентификатор                            : 5
Формат                                   : UTF-8
Идентификатор кодека                     : S_TEXT/UTF8
Идентификатор кодека/Информация          : UTF-8 Plain Text
Продолжительность                        : 2 ч. 33 м.
Битрейт                                  : 96 бит/сек
ElementCount                             : 2321
Размер потока                            : 109 Кбайт (0%)
Заголовок                                : Full
Язык                                     : Russian
Default                                  : Нет
Forced                                   : Нет

Текст #3
Идентификатор                            : 6
Формат                                   : UTF-8
Идентификатор кодека                     : S_TEXT/UTF8
Идентификатор кодека/Информация          : UTF-8 Plain Text
Продолжительность                        : 2 ч. 25 м.
Битрейт                                  : 73 бит/сек
ElementCount                             : 2617
Размер потока                            : 78,3 Кбайт (0%)
Заголовок                                : SDH
Язык                                     : English
Default                                  : Нет
Forced                                   : Нет

Меню
00:00:00.000                             : en:00:00:00.000
00:06:36.104                             : en:00:06:36.104
00:14:03.468                             : en:00:14:03.468
00:21:45.763                             : en:00:21:45.763
00:27:53.255                             : en:00:27:53.255
00:33:53.907                             : en:00:33:53.907
00:40:08.906                             : en:00:40:08.906
00:46:58.941                             : en:00:46:58.941
00:53:25.786                             : en:00:53:25.786
01:02:02.928                             : en:01:02:02.928
01:08:47.081                             : en:01:08:47.081
01:14:37.223                             : en:01:14:37.223
01:20:10.180                             : en:01:20:10.180
01:29:13.390                             : en:01:29:13.390
01:37:59.499                             : en:01:37:59.499
01:44:57.583                             : en:01:44:57.583
01:51:15.502                             : en:01:51:15.502
01:57:59.447                             : en:01:57:59.447
02:06:09.729                             : en:02:06:09.729
02:10:54.096                             : en:02:10:54.096
02:16:01.153                             : en:02:16:01.153
02:21:42.619                             : en:02:21:42.619
02:25:17.292                             : en:02:25:17.292

скриншоты

http://s013.radikal.ru/i322/1709/07/18c7003f6e05.png
http://i053.radikal.ru/1709/80/1c9477002454.png
http://s019.radikal.ru/i603/1709/99/695d003cf5d9.png
http://s011.radikal.ru/i316/1709/45/d879e65e2c6c.png

http://forumfiles.ru/files/0018/1d/0a/99978.png